#TITLE:magic;
#SUBTITLE:;
#ARTIST:MEG;
#TITLETRANSLIT:;
#SUBTITLETRANSLIT:;
#ARTISTTRANSLIT:;
#CREDIT:;
#BANNER:magic_logo.jpg;
#BACKGROUND:magic_bg.jpg;
#LYRICSPATH:;
#CDTITLE:Lan.png;
#MUSIC:magic.mp3;
#OFFSET:-0.020;
#SAMPLESTART:100.000;
#SAMPLELENGTH:12.000;
#SELECTABLE:YES;
#BPMS:0.000=128.020;
#STOPS:;
#BGCHANGES:;
// cache tags:
#FIRSTBEAT:4.000;
#LASTBEAT:300.000;
#SONGFILENAME:Songs/Super Dancer Online/magic/magic.sm;
#HASMUSIC:1;
#HASBANNER:1;
#MUSICLENGTH:145.022;
// end cache tags

//---------------dance-single - sky----------------
#NOTES:
     dance-single:
     sky:
     Hard:
     8:
     0.725,0.776,1.000,0.041,0.093,512.000,213.000,6.000,0.000,25.000:

0000
0000
0000
0000
,
1000
0010
0100
0001
0000
0010
0000
0100
,
0000
1000
0000
0010
0100
1000
0100
0010
,
0100
0010
0001
0100
0000
0010
0000
1000
,
0000
0100
0000
0001
0010
0001
0100
1000
,
0010
0100
1010
0001
0100
0010
0100
1000
,
0001
0100
0010
0001
1100
0010
0101
0010
,
1001
0100
0011
0100
1000
0010
0100
0010
,
0001
0000
0100
0000
1000
0000
0010
0000
0101
0000
0010
0100
1000
0100
0011
0000
,
1101
0010
0100
1000
0000
0010
0000
0100
,
0000
0001
0000
0010
0100
0010
0001
0010
,
0100
1000
0100
0010
0000
0100
0000
0001
,
0000
0010
0100
0010
1001
0100
0011
0100
,
1010
0000
0101
0000
0010
0101
0010
0000
,
1100
0000
0010
0100
0001
0010
0101
0000
,
1010
0000
0110
0000
0001
1100
0011
0000
,
1001
0000
0011
0100
1001
0010
1100
0000
,
0101
0000
0011
0000
1000
1010
1100
0000
,
0101
0000
0110
1000
0011
0100
1010
0000
,
1001
0000
0101
0000
0010
1010
0110
0000
,
0011
0100
1010
0110
0000
0001
0010
0100
,
1001
0000
0101
0000
0010
1100
0001
0000
,
0101
0000
0011
1000
0101
0010
1100
0000
,
1001
0000
1010
0000
0101
1000
0011
0000
,
1001
0000
0101
0010
1100
0010
0011
0000
,
0101
0000
0011
0000
1000
1001
0110
0000
,
1010
0000
0101
0010
1100
0010
0101
0000
,
0011
0000
0110
0000
1000
1010
0110
0000
,
1001
0100
0011
1100
0101
0010
1100
0000
,
0101
0010
0100
0010
0100
1000
0100
0010
,
0001
0010
0100
0010
0100
1000
0100
0010
,
0100
0001
0100
1000
0010
0100
0001
0010
,
0100
1000
0010
0100
0010
0100
1000
0100
,
0010
0001
0100
0010
0100
1000
0100
0010
,
0001
0010
0100
0010
0100
1000
0010
0100
,
0001
0100
0001
0100
1000
0010
0100
0001
,
1000
0000
0000
0000
0000
0000
0000
0000
0101
0000
0010
0100
1000
0100
0011
0000
,
1001
0000
0100
0010
1100
0000
0101
0000
0011
0000
0100
0000
1001
0000
0100
0000
,
0011
0000
0100
0010
1001
0000
1100
0000
0101
0000
0010
0000
0101
0000
1000
0000
,
0110
0000
1000
0100
0011
0000
1100
0000
0101
0000
0010
0000
1010
0000
0100
0000
,
0011
0000
0100
0010
1100
0000
0101
0000
0011
0000
0100
0000
1010
0000
0100
0000
,
1001
0000
0010
0100
1010
0000
0101
0000
0011
0000
0100
0000
1001
0000
0010
0000
,
0101
0000
0010
0100
1001
0000
0101
0000
0011
0000
0100
0000
1010
0000
0100
0000
,
0011
0000
0100
1000
0110
0000
0011
0000
1010
0000
0100
0000
1001
0000
0010
0000
,
1100
0000
0010
0000
0101
0000
1000
0000
0011
0000
0100
0000
1100
0010
0001
0000
,
0101
0000
0010
0001
1100
0000
1010
0000
0110
0000
0001
0000
0101
0000
0010
0000
,
1001
0000
0100
0010
0101
0000
0011
0000
1100
0000
0010
0000
1001
0000
0100
0000
,
1010
0000
0100
1000
0011
0000
1100
0000
1001
0000
0010
0000
1010
0000
0100
0000
,
0101
0000
1000
0100
0011
0000
1010
0000
0110
0000
0001
0000
1001
0000
0100
0000
,
1010
0000
0100
0010
0101
0000
0011
0000
1100
0000
0010
0000
1010
0000
0100
0000
,
0101
0000
0010
0100
1001
0000
1010
0000
0101
0000
0010
0000
1010
0000
0100
0000
,
0011
0000
0100
0000
1001
0000
0000
0000
0101
0000
0010
0100
1000
0100
0010
0100
,
1001
0000
0000
0000
0000
0000
0000
0000
1100
0000
0010
0100
0010
0001
0110
0000
,
1021
0100
1001
0100
1100
0001
0101
1000
,
1001
0000
0100
0000
0101
0000
1000
0030
1100
0000
0010
0000
0101
0000
1000
0000
,
0011
0100
1010
0001
0110
1000
0011
0100
,
1010
0100
1001
0010
1100
0001
0110
1000
,
1102
0010
1010
0100
0110
1000
1010
0100
,
1010
0000
0010
0000
1100
0000
0010
0003
1100
0000
0010
0000
0101
0000
1000
0000
,
0011
0100
1001
0100
1010
0001
0110
0001
,
1100
0000
0010
0000
0101
0000
1000
0000
0011
0000
1000
0100
0010
0001
1100
0000
,
1021
0100
1001
0100
1100
0001
0101
1000
,
1001
0000
0100
0000
0101
0000
1000
0030
1100
0000
0010
0000
0101
0000
1000
0000
,
0011
0100
1010
0001
0110
1000
0011
0100
,
1010
0100
1001
0010
1100
0001
0110
1000
,
1102
0010
1010
0100
0110
1000
1010
0100
,
1010
0000
0010
0000
1100
0000
0010
0003
1100
0000
0010
0000
0101
0000
1000
0000
,
0011
0100
1001
0100
1010
0001
0110
0001
,
1100
0000
0010
0000
0101
0000
1000
0000
1010
0000
0001
0010
0100
0010
0101
0000
,
2020
0000
0000
0000
,
0000
0000
0000
0000
,
0000
0000
0000
0000
,
0000
0000
0000
0000
,
0000
0000
0000
0000
,
0000
0000
0000
0000
,
3030
0000
0000
0000
;
